#TITLE:FIGHTING CATS;
#SUBTITLE:;
#ARTIST:Halloween Sounds;
#TITLETRANSLIT:;
#SUBTITLETRANSLIT:;
#ARTISTTRANSLIT:;
#CREDIT:;
#BANNER:fightingcats-banner.PNG;
#BACKGROUND:fightingcats-bg.PNG;
#LYRICSPATH:;
#CDTITLE:;
#MUSIC:Fighting Cats.mp3;
#OFFSET:-1.870;
#SAMPLESTART:10.564;
#SAMPLELENGTH:12.000;
#SELECTABLE:YES;
#BPMS:0.000=300.000;
#STOPS:;
#BGCHANGES:;
// cache tags:
#FIRSTBEAT:7.500;
#LASTBEAT:203.500;
#SONGFILENAME:Songs/Music V.I.P ^_^/Fighting Cats (Joke Simfile)/fightingcats.sm;
#HASMUSIC:1;
#HASBANNER:1;
#MUSICLENGTH:43.371;
// end cache tags

//---------------dance-single - ----------------
#NOTES:
     dance-single:
     :
     Challenge:
     7:
     0.458,0.587,0.277,0.991,0.000,84.000,12.000,43.000,0.000,0.000:
0000
0000
0000
0000
,
0000
0000
0000
0000
0000
0000
0000
2002
,
0000
0000
0000
0000
,
0000
0000
0000
3003
,
0000
0220
0000
0000
0000
0000
0000
0000
,
0330
0000
0002
2000
0000
0000
0000
0000
,
0000
0000
0000
3003
,
0200
0000
0000
0000
0000
0320
0000
0000
,
0000
0000
0000
0000
,
0000
0000
0000
0000
,
0000
0000
0000
0030
,
2002
0000
0000
0000
,
0000
0000
0000
0000
,
3003
0220
0000
0000
,
0000
0330
0000
0002
0200
0000
0000
0000
,
0000
0000
0000
0303
,
1000
0001
1000
0001
1000
0001
1000
0001
,
0000
0000
0000
0200
0000
0000
0000
0000
,
0000
0000
0300
2002
,
0000
0000
0000
3003
,
1000
0010
0100
0001
0010
0100
1000
0010
,
0100
0000
0010
0000
,
0000
0000
1000
0000
0000
0000
0001
0010
,
0100
1000
0000
0000
0000
0020
0000
0030
,
0000
0000
0000
2002
0000
0000
0000
0000
,
3003
0000
0010
0100
0010
0000
2002
0000
,
0000
0000
0000
0000
,
0000
0000
0000
0000
0000
3003
0000
0000
,
0220
0000
0000
0000
0000
0000
0000
0330
,
0000
2000
0002
0000
0000
0000
0000
0000
,
0000
0000
0000
0000
0000
3003
0000
0020
,
0000
0000
0230
0000
,
0000
0000
0000
0000
,
0000
0000
0000
0000
,
0000
0000
0000
0000
0000
0300
0000
2002
,
0000
0000
0000
0000
,
0000
0000
0000
0000
0000
0000
0000
3003
,
0000
0220
0000
0000
0000
0000
0000
0000
,
0330
0000
2000
0020
0000
0000
0000
0000
,
0000
0000
0000
0000
0000
3030
0000
0001
,
1000
0001
1000
0001
1000
0001
1000
0000
,
0000
0020
0000
0000
,
0000
0000
0000
0030
0000
2002
0000
0000
,
0000
0000
0000
0000
0000
3003
0000
0001
,
0100
0010
1000
0100
0010
0001
0100
0010
,
0000
0000
0000
0100
0000
0000
0000
0000
,
0000
0001
0000
0000
0000
1000
0100
0010
,
0001
0000
0200
0300
,
0000
0000
2002
0000
0000
0000
0000
3003
,
0000
0100
0010
0100
0000
0002
0000
0000
,
2003
0000
0000
0000
3020
0000
0000
0130
;
